<?xml version="1.0" standalone="no"?>
<!DOCTYPE svg PUBLIC "-//W3C//DTD SVG 1.1//EN" "http://www.w3.org/Graphics/SVG/1.1/DTD/svg11.dtd" >
<svg xmlns="http://www.w3.org/2000/svg">
<metadata>Generated by IcoMoon</metadata>
<defs>
<font id="icomoon" horiz-adv-x="1024">
<font-face units-per-em="1024" ascent="960" descent="-64" />
<missing-glyph horiz-adv-x="1024" />
<glyph unicode="&#x20;" horiz-adv-x="512" d="" />
<glyph unicode="&#xe900;" glyph-name="check_24dp_5F6368_FILL0_wght500_GRAD0_opsz24" d="M407.467 300.939l357.013 357.013q14.581 14.581 34.197 14.581t34.208-14.581q14.581-14.592 14.581-34.613t-14.581-34.613l-391.211-392.021q-14.592-14.581-34.208-14.581t-34.208 14.581l-182.955 182.955q-14.581 14.592-14.176 34.613t14.987 34.613q14.592 14.581 34.613 14.581t34.613-14.581l147.125-147.947z" />
<glyph unicode="&#xe901;" glyph-name="videocam_24dp_5F6368_FILL0_wght300_GRAD0_opsz24" d="M194.048 106.667q-32.32 0-54.72 22.4t-22.4 54.731v485.739q0 32.331 22.4 54.731t54.72 22.4h485.749q32.32 0 54.72-22.4t22.4-54.731v-195.285l117.173 117.173q9.44 9.44 21.205 4.715 11.776-4.715 11.776-18.005v-302.933q0-13.291-11.776-18.005-11.765-4.725-21.205 4.715l-117.173 117.173v-195.285q0-32.331-22.4-54.731t-54.72-22.4h-485.749zM194.048 170.667h485.749q5.739 0 9.429 3.691 3.701 3.691 3.701 9.44v485.739q0 5.749-3.701 9.44-3.691 3.691-9.429 3.691h-485.749q-5.739 0-9.429-3.691t-3.691-9.44v-485.739q0-5.749 3.691-9.44t9.429-3.691zM180.928 170.667v0z" />
<glyph unicode="&#xe902;" glyph-name="stadia_controller_24dp_5F6368_FILL0_wght300_GRAD0_opsz24" d="M201.6 96q-60.309 0-102.56 42.581-42.261 42.592-43.573 103.723 0 9.024 0.864 17.803t2.997 17.963l89.6 358.4q14.005 53.941 57.024 87.403t98.048 33.461h416q55.029 0 98.048-33.461t57.024-87.403l89.6-358.4q2.133-9.184 3.531-18.496t1.397-18.336q0-61.131-43.115-103.189-43.125-42.048-104.053-42.048-41.963 0-77.483 22.027-35.531 22.037-53.909 59.701l-30.283 62.272q-6.56 13.333-19.691 20t-27.733 6.667h-202.667q-14.496 0-27.68-6.56-13.184-6.571-19.744-20.107l-30.283-62.272q-17.963-38.080-53.771-59.904t-77.589-21.824zM204.907 160q23.029 0 42.229 12.309t28.971 32.896l29.867 61.216q14.731 30.176 43.221 47.211t61.472 17.035h202.667q33.237 0 61.579-17.76 28.352-17.771 44.181-46.901l29.867-60.8q9.771-20.587 28.971-32.896t42.507-12.309q34.357 0 58.901 23.019 24.544 23.008 25.195 56.981 0 0.576-2.539 22.731l-89.6 357.333q-8.288 32.085-33.771 52.672-25.472 20.597-58.624 20.597h-416q-33.589 0-59.381-20.597-25.792-20.587-33.013-52.672l-89.6-357.333q-1.717-5.579-2.539-21.664 0-34.389 25.152-57.728 25.141-23.339 60.288-23.339zM576 474.262q15.669 0 26.709 11.029 11.029 11.040 11.029 26.709t-11.029 26.709q-11.040 11.029-26.709 11.029t-26.709-11.029q-11.029-11.040-11.029-26.709t11.029-26.709q11.040-11.029 26.709-11.029zM661.333 559.595q15.669 0 26.709 11.029 11.029 11.040 11.029 26.709t-11.029 26.709q-11.040 11.029-26.709 11.029t-26.709-11.029q-11.029-11.040-11.029-26.709t11.029-26.709q11.040-11.029 26.709-11.029zM661.333 388.928q15.669 0 26.709 11.029 11.029 11.040 11.029 26.709t-11.029 26.709q-11.040 11.029-26.709 11.029t-26.709-11.029q-11.029-11.040-11.029-26.709t11.029-26.709q11.040-11.029 26.709-11.029zM746.667 474.262q15.669 0 26.709 11.029 11.029 11.040 11.029 26.709t-11.029 26.709q-11.040 11.029-26.709 11.029t-26.709-11.029q-11.029-11.040-11.029-26.709t11.029-26.709q11.040-11.029 26.709-11.029zM362.645 411.894q11.019 0 18.24 7.211t7.221 18.229v49.227h49.227q11.019 0 18.229 7.211 7.211 7.2 7.211 18.208 0 11.019-7.211 18.24t-18.229 7.221h-49.227v49.227q0 11.019-7.211 18.229-7.2 7.211-18.208 7.211-11.019 0-18.24-7.211t-7.221-18.229v-49.227h-49.227q-11.019 0-18.229-7.211-7.211-7.2-7.211-18.208 0-11.019 7.211-18.24t18.229-7.221h49.227v-49.227q0-11.019 7.211-18.229 7.2-7.211 18.208-7.211z" />
<glyph unicode="&#xe903;" glyph-name="shopping_cart_24dp_5F6368_FILL0_wght300_GRAD0_opsz24" d="M305.227 18.87q-31.093 0-52.875 21.792-21.781 21.781-21.781 52.875 0 31.104 21.781 52.885t52.875 21.781q31.104 0 52.885-21.781t21.781-52.885q0-31.093-21.781-52.875-21.781-21.792-52.885-21.792zM718.773 18.87q-31.104 0-52.885 21.792-21.781 21.781-21.781 52.875 0 31.104 21.781 52.885t52.885 21.781q31.093 0 52.875-21.781t21.781-52.885q0-31.093-21.781-52.875-21.781-21.792-52.875-21.792zM256.651 693.334l108.149-226.464h290.869q3.691 0 6.571 1.845 2.869 1.845 4.917 5.131l114.464 208q2.464 4.512 0.405 8-2.048 3.488-6.976 3.488h-518.4zM225.973 757.334h592.405q26.176 0 39.584-22.283 13.419-22.272 1.28-45.493l-136.704-247.627q-10.496-18.464-27.765-28.757-17.28-10.304-37.867-10.304h-311.307l-49.397-90.251q-3.285-4.928-0.203-10.667 3.072-5.749 9.227-5.749h456.213q13.611 0 22.805-9.184 9.184-9.195 9.184-22.816t-9.184-22.805q-9.195-9.195-22.805-9.195h-456.213q-42.667 0-64.117 36.8-21.461 36.8-1.515 73.483l60.875 109.451-155.232 326.731h-49.237q-13.621 0-22.805 9.195-9.195 9.184-9.195 22.805t9.195 22.805q9.184 9.195 22.805 9.195h65.227q10.923 0 20.352-5.781 9.44-5.792 14.357-16.288l30.037-63.264zM364.8 466.87v0z" />
<glyph unicode="&#xe904;" glyph-name="sentiment_stressed_24dp_5F6368_FILL0_wght300_GRAD0_opsz24" d="M512 284.224l50.293-50.293q5.995-5.995 13.707-5.995t13.707 5.995l50.293 50.293 23.712-23.712q7.552-7.552 17.685-7.755t18.091 7.755 7.957 17.888-7.957 17.888l-45.781 45.781q-5.995 5.995-13.707 5.995t-13.707-5.995l-50.293-50.293-50.293 50.293q-5.995 5.995-13.707 5.995t-13.707-5.995l-50.293-50.293-50.293 50.293q-5.995 5.995-13.707 5.995t-13.707-5.995l-45.781-45.781q-7.552-7.552-7.755-17.685t7.755-18.091 17.888-7.957 17.888 7.957l23.712 23.712 50.293-50.293q5.995-5.995 13.707-5.995t13.707 5.995l50.293 50.293zM376.779 512l-62.848-45.867q-8.619-6.485-10.464-16.619t4.64-18.741q6.475-8.619 16.821-10.88 10.336-2.251 18.944 4.64l98.133 72.043q7.712 5.984 7.712 15.424t-7.712 15.424l-98.539 72.043q-8.619 6.891-18.539 4.64-9.931-2.261-16.821-10.88-6.485-8.608-4.971-18.741 1.525-10.133 10.795-16.619l62.848-45.867zM647.221 512l62.848 45.867q8.619 6.485 10.464 16.619t-4.64 18.741q-6.475 8.619-16.821 10.88-10.336 2.251-18.944-4.64l-98.133-72.043q-7.712-5.984-7.712-15.424t7.712-15.424l98.539-72.043q8.619-6.891 18.539-4.64 9.931 2.261 16.821 10.88 6.485 8.608 4.971 18.741-1.525 10.133-10.795 16.619l-62.848 45.867zM512 21.334q-84.021 0-157.984 31.957-73.973 31.957-128.704 86.688t-86.688 128.704q-31.957 73.963-31.957 157.984t31.957 157.984q31.957 73.973 86.688 128.704t128.704 86.688q73.963 31.957 157.984 31.957t157.984-31.957q73.973-31.957 128.704-86.688t86.688-128.704q31.957-73.963 31.957-157.984t-31.957-157.984q-31.957-73.973-86.688-128.704t-128.704-86.688q-73.963-31.957-157.984-31.957zM512 85.334q142.933 0 242.133 99.2t99.2 242.133-99.2 242.133-242.133 99.2-242.133-99.2-99.2-242.133 99.2-242.133 242.133-99.2z" />
<glyph unicode="&#xe905;" glyph-name="sentiment_extremely_dissatisfied_24dp_5F6368_FILL0_wght300_GRAD0_opsz24" d="M512.075 21.334q-84.096 0-158.091 31.915t-128.725 86.624-86.667 128.672q-31.925 73.963-31.925 158.048 0 84.096 31.915 158.091t86.624 128.725 128.672 86.667q73.963 31.925 158.048 31.925 84.096 0 158.091-31.915t128.725-86.624 86.667-128.672q31.925-73.963 31.925-158.048 0-84.096-31.915-158.091t-86.624-128.725-128.672-86.667q-73.963-31.925-158.048-31.925zM512 85.334q141.867 0 241.6 99.733t99.733 241.6-99.733 241.6-241.6 99.733-241.6-99.733-99.733-241.6 99.733-241.6 241.6-99.733zM657.227 434.87q23.253 0 39.52 16.277 16.277 16.277 16.277 39.52 0 15.179-7.669 28.352-7.669 13.163-20.885 20.053l15.349 8.619q7.296 4.512 9.227 11.691t-2.581 14.485-11.573 9.44q-7.051 2.133-14.357-2.389l-103.221-58.656q-7.296-3.861-8.896-11.040t2.112-14.485q4.651-7.296 12.032-9.76 7.392-2.464 14.688 2.048l4.597 2.709q-0.736-23.552 15.349-40.203 16.075-16.661 40.032-16.661zM366.773 434.87q23.957 0 40.032 16.661 16.085 16.651 15.349 40.203l5.003-2.709q7.307-4.512 14.485-2.379t11.829 9.44q3.712 7.296 1.792 14.475-1.931 7.179-9.237 11.701l-102.965 58.656q-7.307 3.861-14.155 1.728-6.859-2.133-11.371-9.44-4.512-7.296-2.581-14.144 1.931-6.859 9.227-11.371l15.349-8.619q-13.216-6.891-20.885-20.053-7.669-13.173-7.669-28.352 0-23.243 16.277-39.52 16.267-16.277 39.52-16.277zM512.085 384q-70.485 0-124.192-44.843-53.696-44.843-76.341-112.693h400.896q-22.645 67.851-76.256 112.693t-124.107 44.843z" />
<glyph unicode="&#xe906;" glyph-name="select_check_box_24dp_5F6368_FILL0_wght300_GRAD0_opsz24" d="M226.464 64q-31.915 0-54.528 22.603-22.603 22.613-22.603 54.528v571.072q0 31.915 22.603 54.528 22.613 22.603 54.528 22.603h525.696q13.621 0 22.816-9.195 9.184-9.184 9.184-22.805t-9.184-22.805q-9.195-9.195-22.816-9.195h-525.696q-5.749 0-9.44-3.691t-3.691-9.44v-571.072q0-5.749 3.691-9.44t9.44-3.691h571.072q5.749 0 9.44 3.691t3.691 9.44v279.381q0 13.621 9.195 22.816 9.184 9.184 22.805 9.184t22.805-9.184q9.195-9.195 9.195-22.816v-279.381q0-31.915-22.603-54.528-22.613-22.603-54.528-22.603h-571.072zM492.139 318.027l361.856 361.845q8.853 8.864 21.611 8.864 12.768 0 22.283-8.864 9.515-8.853 9.515-22.272t-9.515-22.933l-379.157-379.157q-11.573-11.573-26.997-11.573t-26.997 11.573l-168.203 168.203q-8.864 8.864-9.067 22.272-0.203 13.419 9.067 22.688 9.269 9.28 22.485 9.28 13.205 0 22.475-9.28l150.645-150.645z" />
<glyph unicode="&#xe907;" glyph-name="reply_24dp_5F6368_FILL0_wght400_GRAD0_opsz24" d="M291.2 426.667l123.733-123.733q12.8-12.8 12.267-29.867t-13.333-29.867q-12.8-11.733-29.867-12.267t-29.867 12.267l-196.267 196.267q-12.8 12.8-12.8 29.867t12.8 29.867l196.267 196.267q11.733 11.733 29.333 11.733t30.4-11.733q12.8-12.8 12.8-30.4t-12.8-30.4l-122.667-122.667h391.467q88.533 0 150.933-62.4t62.4-150.933v-128q0-18.133-12.267-30.4t-30.4-12.267-30.4 12.267-12.267 30.4v128q0 53.333-37.333 90.667t-90.667 37.333h-391.467z" />
<glyph unicode="&#xe908;" glyph-name="radio_button_unchecked_24dp_5F6368_FILL0_wght400_GRAD0_opsz24" d="M512-0q-88.533 0-166.4 33.6t-135.467 91.2-91.2 135.467-33.6 166.4 33.6 166.4 91.2 135.467 135.467 91.2 166.4 33.6 166.4-33.6 135.467-91.2 91.2-135.467 33.6-166.4-33.6-166.4-91.2-135.467-135.467-91.2-166.4-33.6zM512 85.334q142.933 0 242.133 99.2t99.2 242.133-99.2 242.133-242.133 99.2-242.133-99.2-99.2-242.133 99.2-242.133 242.133-99.2z" />
<glyph unicode="&#xe909;" glyph-name="radio_button_checked_24dp_5F6368_FILL0_wght400_GRAD0_opsz24" d="M512 213.334q88.533 0 150.933 62.4t62.4 150.933-62.4 150.933-150.933 62.4-150.933-62.4-62.4-150.933 62.4-150.933 150.933-62.4zM512-0q-88.533 0-166.4 33.6t-135.467 91.2-91.2 135.467-33.6 166.4 33.6 166.4 91.2 135.467 135.467 91.2 166.4 33.6 166.4-33.6 135.467-91.2 91.2-135.467 33.6-166.4-33.6-166.4-91.2-135.467-135.467-91.2-166.4-33.6zM512 85.334q142.933 0 242.133 99.2t99.2 242.133-99.2 242.133-242.133 99.2-242.133-99.2-99.2-242.133 99.2-242.133 242.133-99.2z" />
<glyph unicode="&#xe90a;" glyph-name="payments_24dp_5F6368_FILL0_wght300_GRAD0_opsz24" d="M586.667 396.31q-44.715 0-75.691 30.976t-30.976 75.691 30.976 75.691 75.691 30.976 75.691-30.976 30.976-75.691-30.976-75.691-75.691-30.976zM305.227 264.203q-31.808 0-54.464 22.656t-22.656 54.475v323.285q0 31.808 22.656 54.464t54.464 22.656h562.869q31.819 0 54.475-22.656t22.656-54.464v-323.285q0-31.819-22.656-54.475t-54.475-22.656h-562.869zM369.227 328.203h434.88q0 31.915 22.656 54.528 22.656 22.603 54.464 22.603v195.285q-31.915 0-54.517 22.656t-22.603 54.464h-434.88q0-31.915-22.656-54.517t-54.464-22.603v-195.285q31.915 0 54.517-22.656t22.603-54.475zM786.048 114.87h-630.144q-31.819 0-54.475 22.656t-22.656 54.475v390.56q0 13.6 9.205 22.805 9.205 9.195 22.805 9.195 13.611 0 22.795-9.195 9.195-9.205 9.195-22.805v-390.56q0-4.917 4.096-9.024 4.107-4.107 9.035-4.107h630.144q13.6 0 22.805-9.205 9.195-9.195 9.195-22.805t-9.195-22.795q-9.205-9.195-22.805-9.195zM305.227 328.203h-13.12v349.536h13.12q-5.333 0-9.227-3.893t-3.893-9.227v-323.285q0-5.333 3.893-9.227 3.893-3.904 9.227-3.904z" />
<glyph unicode="&#xe90b;" glyph-name="mobile_hand_left_24dp_5F6368_FILL0_wght300_GRAD0_opsz24" d="M768 85.334v0zM353.557-21.738h-44.224q-66.293 0-113.152 46.848-46.848 46.848-46.848 113.152v341.333q0 66.293 46.848 113.141 46.859 46.859 113.152 46.859h73.024v-387.285l154.912 70.891q19.616 9.931 40.992 6.155 21.365-3.776 36.469-18.869l12.469-13.131q9.685-9.269 10.539-22.933 0.864-13.664-7.744-24l-189.707-233.184q-16.085-19.040-38.773-29.013-22.688-9.963-47.957-9.963zM754.869 21.334h-311.296l53.003 64h258.293q5.749 0 9.44 3.691t3.691 9.44v656.405q0 5.749-3.691 9.44t-9.44 3.691h-359.381q-5.739 0-9.44-3.691-3.691-3.691-3.691-9.44v-115.275h-64v115.275q0 31.915 22.613 54.528 22.603 22.603 54.517 22.603h359.381q31.915 0 54.528-22.603 22.603-22.613 22.603-54.528v-656.405q0-31.915-22.603-54.528-22.613-22.603-54.528-22.603zM575.179 633.44q15.669 0 26.709 11.029 11.029 11.040 11.029 26.709t-11.029 26.709q-11.040 11.029-26.709 11.029t-26.709-11.029q-11.029-11.040-11.029-26.709t11.029-26.709q11.040-11.029 26.709-11.029zM353.152 42.262q12.064 0 22.848 4.757 10.795 4.757 18.421 14.272l159.755 197.824-180.928-82.944q-19.275-9.035-37.077 2.208-17.813 11.243-17.813 32.907v364.309h-9.024q-39.712 0-67.861-28.149-28.139-28.139-28.139-67.851v-341.333q0-40.373 28.139-68.192 28.149-27.808 67.861-27.808h43.819z" />
<glyph unicode="&#xe90c;" glyph-name="menu_24dp_5F6368_FILL0_wght400_GRAD0_opsz24" d="M170.667 170.667q-18.133 0-30.4 12.267t-12.267 30.4 12.267 30.4 30.4 12.267h682.667q18.133 0 30.4-12.267t12.267-30.4-12.267-30.4-30.4-12.267h-682.667zM170.667 384q-18.133 0-30.4 12.267t-12.267 30.4 12.267 30.4 30.4 12.267h682.667q18.133 0 30.4-12.267t12.267-30.4-12.267-30.4-30.4-12.267h-682.667zM170.667 597.334q-18.133 0-30.4 12.267t-12.267 30.4 12.267 30.4 30.4 12.267h682.667q18.133 0 30.4-12.267t12.267-30.4-12.267-30.4-30.4-12.267h-682.667z" />
<glyph unicode="&#xe90d;" glyph-name="link_24dp_5F6368_FILL0_wght400_GRAD0_opsz24" d="M298.667 213.334q-88.533 0-150.933 62.4t-62.4 150.933 62.4 150.933 150.933 62.4h128q18.133 0 30.4-12.267t12.267-30.4-12.267-30.4-30.4-12.267h-128q-53.333 0-90.667-37.333t-37.333-90.667 37.333-90.667 90.667-37.333h128q18.133 0 30.4-12.267t12.267-30.4-12.267-30.4-30.4-12.267h-128zM384 384q-18.133 0-30.4 12.267t-12.267 30.4 12.267 30.4 30.4 12.267h256q18.133 0 30.4-12.267t12.267-30.4-12.267-30.4-30.4-12.267h-256zM597.333 213.334q-18.133 0-30.4 12.267t-12.267 30.4 12.267 30.4 30.4 12.267h128q53.333 0 90.667 37.333t37.333 90.667-37.333 90.667-90.667 37.333h-128q-18.133 0-30.4 12.267t-12.267 30.4 12.267 30.4 30.4 12.267h128q88.533 0 150.933-62.4t62.4-150.933-62.4-150.933-150.933-62.4h-128z" />
<glyph unicode="&#xe90e;" glyph-name="language_24dp_5F6368_FILL0_wght300_GRAD0_opsz24" d="M512 21.334q-83.36 0-157.333 31.957t-129.024 87.019q-55.061 55.051-87.019 129.024t-31.957 157.333q0 84.021 31.957 157.664t87.019 128.693q55.051 55.061 129.024 87.019t157.333 31.957q84.021 0 157.664-31.957t128.693-87.019q55.061-55.051 87.019-128.693t31.957-157.664q0-83.36-31.957-157.333t-87.019-129.024q-55.051-55.061-128.693-87.019t-157.664-31.957zM512 86.24q32.661 43.317 54.976 87.381t36.352 96.331h-182.656q14.859-53.909 36.768-97.973 21.899-44.064 54.56-85.739zM429.376 97.974q-24.533 35.2-44.064 80.032-19.531 44.843-30.357 91.947h-144.736q33.803-66.464 90.667-111.68 56.864-45.205 128.491-60.299zM594.624 97.974q71.627 15.093 128.491 60.299 56.864 45.216 90.667 111.68h-144.736q-12.885-47.509-32.416-92.352-19.52-44.843-42.005-79.627zM183.381 333.952h158.613q-4.021 23.787-5.835 46.645-1.803 22.848-1.803 46.069t1.803 46.069q1.813 22.859 5.835 46.645h-158.613q-6.155-21.739-9.429-45.205-3.285-23.467-3.285-47.509t3.285-47.509q3.275-23.467 9.429-45.205zM405.984 333.952h212.032q4.011 23.787 5.824 46.229 1.803 22.443 1.803 46.485t-1.803 46.485q-1.813 22.443-5.824 46.229h-212.032q-4.011-23.787-5.824-46.229-1.803-22.443-1.803-46.485t1.803-46.485q1.813-22.443 5.824-46.229zM682.005 333.952h158.613q6.155 21.739 9.429 45.205 3.285 23.467 3.285 47.509t-3.285 47.509q-3.275 23.467-9.429 45.205h-158.613q4.021-23.787 5.835-46.645 1.803-22.848 1.803-46.069t-1.803-46.069q-1.813-22.859-5.835-46.645zM669.045 583.382h144.736q-34.208 67.285-90.048 111.68-55.84 44.384-129.109 60.715 24.533-37.248 43.648-81.483 19.125-44.224 30.773-90.912zM420.672 583.382h182.656q-14.859 53.504-37.376 98.592-22.528 45.088-53.952 85.12-31.424-40.032-53.952-85.12-22.517-45.088-37.376-98.592zM210.219 583.382h144.736q11.648 46.688 30.773 90.912 19.115 44.235 43.648 81.483-73.685-16.331-129.312-60.928-55.637-44.587-89.845-111.467z" />
<glyph unicode="&#xe90f;" glyph-name="keyboard_arrow_right_24dp_5F6368_FILL0_wght400_GRAD0_opsz24" d="M537.6 426.667l-166.4 166.4q-11.733 11.733-11.733 29.867t11.733 29.867 29.867 11.733 29.867-11.733l196.267-196.267q6.4-6.4 9.067-13.867t2.667-16-2.667-16-9.067-13.867l-196.267-196.267q-11.733-11.733-29.867-11.733t-29.867 11.733-11.733 29.867 11.733 29.867l166.4 166.4z" />
<glyph unicode="&#xe910;" glyph-name="finance_24dp_5F6368_FILL0_wght300_GRAD0_opsz24" d="M215.797 64q-32.331 0-54.731 22.4t-22.4 54.731v637.536q0 13.6 9.205 22.805 9.205 9.195 22.805 9.195 13.611 0 22.795-9.195 9.195-9.205 9.195-22.805v-637.536q0-4.928 4.107-9.024 4.096-4.107 9.024-4.107h637.536q13.6 0 22.795-9.205 9.205-9.205 9.205-22.805 0-13.611-9.205-22.795-9.195-9.195-22.795-9.195h-637.536zM322.464 202.667q-15.691 0-26.304 10.613-10.624 10.624-10.624 26.315v274.048q0 15.691 10.624 26.304 10.613 10.613 26.304 10.613h52.512q16.384 0 27.477-11.115 11.083-11.115 11.083-27.552v-270.72q0-16.437-11.083-27.467-11.093-11.040-27.477-11.040h-52.512zM525.131 202.667q-15.691 0-26.304 10.613-10.624 10.624-10.624 26.315v485.739q0 16.395 11.093 27.477 11.083 11.083 27.477 11.083h52.512q15.691 0 26.304-10.613t10.613-26.304v-485.739q0-16.395-11.083-27.477-11.093-11.093-27.477-11.093h-52.512zM727.797 202.667q-15.691 0-26.315 10.613-10.613 10.624-10.613 26.315v101.739q0 16.395 11.093 27.477 11.083 11.083 27.477 11.083h52.501q15.701 0 26.315-10.613t10.613-26.304v-101.739q0-16.395-11.083-27.477-11.093-11.093-27.477-11.093h-52.512z" />
<glyph unicode="&#xe911;" glyph-name="crowdsource_24dp_5F6368_FILL0_wght300_GRAD0_opsz24" d="M689.227 515.286q-24.608 0-41.845 17.227-17.227 17.227-17.227 41.845t17.227 41.845q17.237 17.227 41.845 17.227 24.619 0 41.845-17.227 17.237-17.227 17.237-41.845t-17.237-41.845q-17.227-17.227-41.845-17.227zM334.773 515.286q-24.619 0-41.845 17.227-17.237 17.227-17.237 41.845t17.237 41.845q17.227 17.227 41.845 17.227 24.608 0 41.845-17.227 17.227-17.227 17.227-41.845t-17.227-41.845q-17.237-17.227-41.845-17.227zM512 406.976q-24.619 0-41.845 17.227-17.227 17.237-17.227 41.845 0 24.619 17.227 41.845 17.227 17.237 41.845 17.237t41.845-17.237q17.227-17.227 17.227-41.845 0-24.608-17.227-41.845-17.227-17.227-41.845-17.227zM512 623.584q-24.619 0-41.845 17.237-17.227 17.227-17.227 41.845t17.227 41.845 41.845 17.227 41.845-17.227 17.227-41.845-17.227-41.845q-17.227-17.237-41.845-17.237zM512.021 111.595q-19.712 0-39.936 2.784-20.224 2.795-38.859 8.128v140.629q0 34.88 23.147 59.819 23.136 24.939 55.627 24.939t55.627-24.939q23.147-24.939 23.147-59.819v-140.629q-18.635-5.333-38.837-8.128-20.203-2.784-39.915-2.784zM374.155 143.264q-19.605 7.829-37.739 17.621-18.133 9.781-35.029 21.664-27.829 19.787-43.989 51.296t-16.16 66.955q0 25.333-5.461 47.253t-19.189 42.005q-9.813 13.056-36.864 39.2t-49.675 48.832q-10.827 10.848-10.827 27.435t10.912 27.317q10.837 10.912 27.573 10.912t27.563-10.827l150.581-142.699q19.68-17.717 28.992-42.005t9.312-49.557v-155.403zM649.845 143.264v155.232q0 25.547 9.845 50.112t28.469 41.461l150.837 142.848q11.829 10.837 28.096 10.837t27.179-10.912 10.912-27.509-10.805-27.328q-22.581-22.453-49.835-48.245-27.253-25.803-37.163-39.691-13.781-19.648-19.2-41.76t-5.419-47.659q0-35.381-16.16-67.168-16.16-31.797-44.715-51.808-15.755-11.008-34.027-20.789-18.261-9.792-38.016-17.621z" />
<glyph unicode="&#xe912;" glyph-name="credit_card_24dp_5F6368_FILL0_wght300_GRAD0_opsz24" d="M917.333 669.536v-485.739q0-32.331-22.4-54.731t-54.731-22.4h-656.405q-32.331 0-54.731 22.4t-22.4 54.731v485.739q0 32.331 22.4 54.731t54.731 22.4h656.405q32.331 0 54.731-22.4t22.4-54.731zM170.667 580.096h682.667v89.44q0 4.928-4.107 9.024-4.096 4.107-9.024 4.107h-656.405q-4.928 0-9.024-4.107-4.107-4.096-4.107-9.024v-89.44zM170.667 443.904v-260.107q0-4.928 4.107-9.024 4.096-4.107 9.024-4.107h656.405q4.928 0 9.024 4.107 4.107 4.096 4.107 9.024v260.107h-682.667zM170.667 170.667v0z" />
<glyph unicode="&#xe913;" glyph-name="contract_edit_24dp_5F6368_FILL0_wght300_GRAD0_opsz24" d="M424.203 631.798h303.595q13.6 0 22.795-9.205 9.205-9.205 9.205-22.816 0-13.6-9.205-22.795-9.195-9.184-22.795-9.184h-303.595q-13.6 0-22.795 9.205-9.205 9.205-9.205 22.805 0 13.611 9.205 22.795 9.195 9.195 22.795 9.195zM424.203 508.715h303.595q13.6 0 22.795-9.205 9.205-9.195 9.205-22.805t-9.205-22.795q-9.195-9.195-22.795-9.195h-303.595q-13.6 0-22.795 9.205-9.205 9.205-9.205 22.816 0 13.6 9.205 22.795 9.195 9.184 22.795 9.184zM508.715 85.334v0zM256 21.334q-44.715 0-75.691 30.976t-30.976 75.691v84.512q0 16.395 11.093 27.477 11.083 11.083 27.477 11.083h89.429v503.797q0 31.819 22.656 54.475t54.475 22.656h443.072q31.819 0 54.475-22.656t22.656-54.475v-251.893q0-13.6-9.205-22.805-9.205-9.195-22.805-9.195-13.611 0-22.795 9.195-9.195 9.205-9.195 22.805v251.893q0 5.749-3.691 9.44t-9.44 3.691h-443.072q-5.749 0-9.44-3.691t-3.691-9.44v-503.797h135.381q13.6 0 22.805-9.195 9.195-9.205 9.195-22.816 0-13.6-9.195-22.795-9.205-9.184-22.805-9.184h-263.381v-59.083q0-18.133 12.267-30.4t30.4-12.267h220.715q13.6 0 22.805-9.205 9.195-9.205 9.195-22.805 0-13.611-9.195-22.795-9.205-9.195-22.805-9.195h-220.715zM602.261 59.904v58.091q0 7.531 2.784 14.592 2.795 7.061 8.779 13.056l220.064 218.997q7.957 7.957 17.184 11.2 9.227 3.232 18.453 3.232 10.059 0 19.467-3.765 9.408-3.776 17.099-11.328l39.467-39.872q6.891-7.968 10.667-17.237t3.776-18.539-3.445-18.869-10.997-17.557l-218.997-218.997q-5.984-5.995-13.045-8.779-7.072-2.795-14.603-2.795h-58.091q-16.395 0-27.477 11.093-11.083 11.083-11.083 27.477zM909.131 288.331v0zM653.131 72.203h40.533l138.496 139.168-19.605 20.267-19.861 20.011-139.563-138.912v-40.533zM812.555 231.638l-19.861 20.011 39.467-40.277-19.605 20.267z" />
<glyph unicode="&#xe914;" glyph-name="close_24dp_5F6368_FILL0_wght400_GRAD0_opsz24" d="M512 366.934l-209.067-209.067q-11.733-11.733-29.867-11.733t-29.867 11.733-11.733 29.867 11.733 29.867l209.067 209.067-209.067 209.067q-11.733 11.733-11.733 29.867t11.733 29.867 29.867 11.733 29.867-11.733l209.067-209.067 209.067 209.067q11.733 11.733 29.867 11.733t29.867-11.733 11.733-29.867-11.733-29.867l-209.067-209.067 209.067-209.067q11.733-11.733 11.733-29.867t-11.733-29.867-29.867-11.733-29.867 11.733l-209.067 209.067z" />
<glyph unicode="&#xe915;" glyph-name="circle_24dp_5F6368_FILL0_wght400_GRAD0_opsz24" d="M512-0q-88.533 0-166.4 33.6t-135.467 91.2-91.2 135.467-33.6 166.4 33.6 166.4 91.2 135.467 135.467 91.2 166.4 33.6 166.4-33.6 135.467-91.2 91.2-135.467 33.6-166.4-33.6-166.4-91.2-135.467-135.467-91.2-166.4-33.6zM512 85.334q142.933 0 242.133 99.2t99.2 242.133-99.2 242.133-242.133 99.2-242.133-99.2-99.2-242.133 99.2-242.133 242.133-99.2z" />
<glyph unicode="&#xe916;" glyph-name="circle_24dp_5F6368_FILL1_wght400_GRAD0_opsz24" d="M512-0q-88.533 0-166.4 33.6t-135.467 91.2-91.2 135.467-33.6 166.4 33.6 166.4 91.2 135.467 135.467 91.2 166.4 33.6 166.4-33.6 135.467-91.2 91.2-135.467 33.6-166.4-33.6-166.4-91.2-135.467-135.467-91.2-166.4-33.6z" />
<glyph unicode="&#xe917;" glyph-name="radio_button_checked_24dp_5F6368_FILL1_wght400_GRAD0_opsz24" d="M512 213.334q88.533 0 150.933 62.4t62.4 150.933-62.4 150.933-150.933 62.4-150.933-62.4-62.4-150.933 62.4-150.933 150.933-62.4zM512-0q-88.533 0-166.4 33.6t-135.467 91.2-91.2 135.467-33.6 166.4 33.6 166.4 91.2 135.467 135.467 91.2 166.4 33.6 166.4-33.6 135.467-91.2 91.2-135.467 33.6-166.4-33.6-166.4-91.2-135.467-135.467-91.2-166.4-33.6zM512 85.334q142.933 0 242.133 99.2t99.2 242.133-99.2 242.133-242.133 99.2-242.133-99.2-99.2-242.133 99.2-242.133 242.133-99.2z" />
<glyph unicode="&#xe918;" glyph-name="keyboard_arrow_left_24dp_5F6368_FILL1_wght400_GRAD0_opsz24" d="M460.8 426.667l166.4-166.4q11.733-11.733 11.733-29.867t-11.733-29.867-29.867-11.733-29.867 11.733l-196.267 196.267q-6.4 6.4-9.067 13.867t-2.667 16 2.667 16 9.067 13.867l196.267 196.267q11.733 11.733 29.867 11.733t29.867-11.733 11.733-29.867-11.733-29.867l-166.4-166.4z" />
<glyph unicode="&#xe919;" glyph-name="attachment_24dp_5F6368_FILL0_wght300_GRAD0_opsz24" d="M356.512 188.31q-103.936 0-176.885 72.331-72.96 72.32-72.96 176.075t72.96 176.288q72.949 72.533 176.885 72.533h383.595q73.845 0 125.536-51.285 51.691-51.275 51.691-125.12t-51.691-125.131-125.536-51.285h-363.083q-43.317 0-73.963 30.187-30.645 30.176-30.645 73.557t30.432 74.027 74.176 30.645h342.56q13.6 0 22.805-9.205 9.195-9.205 9.195-22.816 0-13.6-9.195-22.795-9.205-9.184-22.805-9.184h-342.56q-17.152 0-28.885-11.531t-11.733-28.672q0-17.152 11.733-28.683t28.885-11.531h363.488q47.264 0.661 80.043 32.832t32.779 79.584q0 47.211-32.981 79.808-32.992 32.597-80.245 32.597h-383.595q-77.376 0.661-131.605-53.493-54.24-54.155-54.24-131.477 0-76.224 54.24-129.589 54.229-53.355 131.605-54.667h363.072q13.6 0 22.805-9.205 9.195-9.205 9.195-22.805 0-13.611-9.195-22.805-9.205-9.184-22.805-9.184h-363.072z" />
<glyph unicode="&#xe91a;" glyph-name="attach_file_24dp_5F6368_FILL0_wght300_GRAD0_opsz24" d="M754.048 271.179q0-103.936-72.331-176.885-72.32-72.96-176.075-72.96t-176.288 72.96q-72.533 72.949-72.533 176.885v383.595q0 73.845 51.285 125.536 51.275 51.691 125.12 51.691t125.131-51.691 51.285-125.536v-363.083q0-43.317-30.176-73.963-30.187-30.645-73.557-30.645-43.381 0-74.027 30.432t-30.645 74.176v342.56q0 13.6 9.195 22.805 9.205 9.195 22.816 9.195 13.6 0 22.795-9.195 9.184-9.205 9.184-22.805v-342.56q0-17.152 11.531-28.885t28.683-11.733q17.141 0 28.672 11.733t11.531 28.885v363.488q-0.661 47.264-32.832 80.043t-79.584 32.779q-47.211 0-79.808-32.981-32.597-32.992-32.597-80.245v-383.595q-0.661-77.376 53.493-131.605 54.155-54.24 131.477-54.24 76.224 0 129.589 54.24 53.355 54.229 54.667 131.605v363.072q0 13.6 9.205 22.805 9.205 9.195 22.816 9.195 13.6 0 22.795-9.195 9.184-9.205 9.184-22.805v-363.072z" />
<glyph unicode="&#xe91b;" glyph-name="keyboard_arrow_down_24dp_5F6368_FILL0_wght300_GRAD0_opsz24" d="M512 312.448q-7.712 0-14.357 2.464t-12.64 8.448l-191.755 191.755q-8.853 8.864-9.067 22.283-0.203 13.408 9.067 22.688 9.28 9.269 22.485 9.269t22.485-9.269l173.781-173.792 173.781 173.792q8.864 8.853 22.283 9.067 13.408 0.203 22.688-9.067 9.269-9.28 9.269-22.485t-9.269-22.485l-191.755-191.755q-5.995-5.984-12.64-8.448t-14.357-2.464z" />
<glyph unicode="&#xe91c;" glyph-name="breaking_news_24dp_5F6368_FILL0_wght200_GRAD0_opsz24" d="M298.72 223.179q13.973 0 23.371 9.451t9.397 23.424-9.451 23.371-23.424 9.397-23.371-9.451-9.397-23.424 9.451-23.371 23.424-9.397zM298.635 618.667q-9.077 0-15.189-6.133t-6.112-15.2v-224.821q0-9.067 6.144-15.2t15.221-6.133 15.189 6.133 6.112 15.2v224.821q0 9.067-6.144 15.2t-15.221 6.133zM725.333 234.667q9.067 0 15.2 6.144t6.133 15.221-6.133 15.189-15.2 6.112h-213.333q-9.067 0-15.2-6.144t-6.133-15.221 6.133-15.189 15.2-6.112h213.333zM725.333 405.334q9.067 0 15.2 6.144t6.133 15.221-6.133 15.189-15.2 6.112h-213.333q-9.067 0-15.2-6.144t-6.133-15.221 6.133-15.189 15.2-6.112h213.333zM725.333 576q9.067 0 15.2 6.144t6.133 15.221-6.133 15.189-15.2 6.112h-213.333q-9.067 0-15.2-6.144t-6.133-15.221 6.133-15.189 15.2-6.112h213.333zM196.928 85.334q-29.461 0-49.195 19.733t-19.733 49.195v544.811q0 29.461 19.733 49.195t49.195 19.733h630.144q29.461 0 49.195-19.733t19.733-49.195v-544.811q0-29.461-19.733-49.195t-49.195-19.733h-630.144zM196.928 128h630.144q9.856 0 18.059 8.203t8.203 18.059v544.811q0 9.856-8.203 18.059t-18.059 8.203h-630.144q-9.856 0-18.059-8.203t-8.203-18.059v-544.811q0-9.856 8.203-18.059t18.059-8.203zM170.667 128v0z" />
<glyph unicode="&#xe91d;" glyph-name="add_24dp_5F6368_FILL0_wght300_GRAD0_opsz24" d="M480 394.667h-213.333q-13.6 0-22.795 9.205-9.205 9.205-9.205 22.805 0 13.611 9.205 22.795 9.195 9.195 22.795 9.195h213.333v213.333q0 13.6 9.205 22.795 9.205 9.205 22.805 9.205 13.611 0 22.795-9.205 9.195-9.195 9.195-22.795v-213.333h213.333q13.6 0 22.795-9.205 9.205-9.205 9.205-22.805 0-13.611-9.205-22.795-9.195-9.195-22.795-9.195h-213.333v-213.333q0-13.6-9.205-22.795-9.205-9.205-22.805-9.205-13.611 0-22.795 9.205-9.195 9.195-9.195 22.795v213.333z" />
<glyph unicode="&#xe91e;" glyph-name="check_indeterminate_small_24dp_5F6368_FILL0_wght300_GRAD0_opsz24" d="M309.333 394.667q-13.6 0-22.795 9.205-9.205 9.205-9.205 22.805 0 13.611 9.205 22.795 9.195 9.195 22.795 9.195h405.333q13.6 0 22.795-9.205 9.205-9.205 9.205-22.805 0-13.611-9.205-22.795-9.195-9.195-22.795-9.195h-405.333z" />
<glyph unicode="&#xe91f;" glyph-name="help_24dp_5F6368_FILL0_wght300_GRAD0_opsz24" d="M511.531 187.083q18.272 0 30.869 12.608 12.597 12.619 12.597 30.901 0 18.272-12.619 30.869-12.619 12.587-30.891 12.587t-30.869-12.619-12.597-30.891 12.619-30.869q12.619-12.587 30.891-12.587zM512.075 21.334q-84.096 0-158.091 31.915t-128.725 86.624-86.667 128.672q-31.925 73.963-31.925 158.048 0 84.096 31.915 158.091t86.624 128.725 128.672 86.667q73.963 31.925 158.048 31.925 84.096 0 158.091-31.915t128.725-86.624 86.667-128.672q31.925-73.963 31.925-158.048 0-84.096-31.915-158.091t-86.624-128.725-128.672-86.667q-73.963-31.925-158.048-31.925zM512 85.334q142.933 0 242.133 99.2t99.2 242.133-99.2 242.133-242.133 99.2-242.133-99.2-99.2-242.133 99.2-242.133 242.133-99.2zM515.456 609.312q29.525 0 51.104-18.592 21.589-18.592 21.589-46.475 0-23.467-13.792-42.005-13.781-18.549-31.509-34.549-23.232-20.608-40.907-45.344-17.675-24.725-18.901-55.083-0.416-11.659 8.203-19.531t20.096-7.872q12.309 0 20.843 8.203t10.912 20.096q4.267 21.995 18.176 39.179 13.909 17.195 30.133 32.693 23.328 22.741 40.715 49.579 17.397 26.848 17.397 59.883 0 50.709-39.957 83.328-39.957 32.608-93.291 32.608-38.069 0-71.797-16.853-33.717-16.864-52.512-49.195-5.824-9.931-3.733-20.896 2.080-10.976 11.253-16.661 11.68-6.496 23.989-3.712 12.309 2.795 20.917 14.027 12.971 16.821 31.392 26.997t39.68 10.176z" />
<glyph unicode="&#xe920;" glyph-name="print_24dp_5F6368_FILL0_wght300_GRAD0_opsz24" d="M354.464 64q-31.819 0-54.475 22.656t-22.656 54.475v93.536h-81.227q-31.819 0-54.475 22.656t-22.656 54.475v165.739q0 45.333 30.976 76t75.691 30.667h572.715q45.333 0 76-30.667t30.667-76v-165.739q0-31.819-22.656-54.475t-54.475-22.656h-81.227v-93.536q0-31.819-22.656-54.475t-54.475-22.656h-315.072zM196.107 298.667h81.227q0.821 31.093 23.232 53.291 22.421 22.197 53.899 22.197h315.072q31.477 0 53.888-22.197 22.421-22.197 23.243-53.291h81.227q5.749 0 9.44 3.691t3.691 9.44v165.739q0 18.133-12.267 30.4t-30.4 12.267h-572.715q-18.133 0-30.4-12.267t-12.267-30.4v-165.739q0-5.749 3.691-9.44t9.44-3.691zM682.667 584.203v114.869q0 5.749-3.691 9.44t-9.44 3.691h-315.072q-5.749 0-9.44-3.691t-3.691-9.44v-114.869h-64v114.869q0 31.819 22.656 54.475t54.475 22.656h315.072q31.819 0 54.475-22.656t22.656-54.475v-114.869h-64zM759.797 413.536q18.133 0 30.4 12.267t12.267 30.4-12.267 30.4-30.4 12.267-30.4-12.267-12.267-30.4 12.267-30.4 30.4-12.267zM682.667 141.131v155.893q0 5.749-3.691 9.44t-9.44 3.691h-315.072q-5.749 0-9.44-3.691t-3.691-9.44v-155.893q0-5.749 3.691-9.44t9.44-3.691h315.072q5.749 0 9.44 3.691t3.691 9.44zM196.107 520.203v0z" />
<glyph unicode="&#xe921;" glyph-name="calculate_24dp_5F6368_FILL0_wght300_GRAD0_opsz24" d="M347.893 177.227h50.88v85.333h85.333v50.88h-85.333v85.333h-50.88v-85.333h-85.333v-50.88h85.333v-85.333zM561.227 209.227h200.213v50.88h-200.213v-50.88zM561.227 315.894h200.213v50.88h-200.213v-50.88zM601.6 481.312l59.733 59.733 59.733-59.733 35.776 35.776-59.733 61.045 59.733 59.733-35.776 35.776-59.733-59.733-59.733 59.733-35.776-35.776 59.733-59.733-59.733-61.045 35.776-35.776zM273.227 552.694h200.213v50.88h-200.213v-50.88zM226.464 64q-32.331 0-54.731 22.4t-22.4 54.731v571.072q0 32.331 22.4 54.731t54.731 22.4h571.072q32.331 0 54.731-22.4t22.4-54.731v-571.072q0-32.331-22.4-54.731t-54.731-22.4h-571.072zM226.464 128h571.072q4.928 0 9.024 4.107 4.107 4.096 4.107 9.024v571.072q0 4.928-4.107 9.024-4.096 4.107-9.024 4.107h-571.072q-4.928 0-9.024-4.107-4.107-4.096-4.107-9.024v-571.072q0-4.928 4.107-9.024 4.096-4.107 9.024-4.107zM213.333 725.334v0z" />
</font>
</defs>
</svg>
